Descargar La saga Crepúsculo Amanecer Parte 1 [CamRip][Castellano][Fantástico/Vampiros][2011]

La saga Crepúsculo: Amanecer Parte 1


TÍTULO ORIGINAL The Twilight saga: Breaking dawn – Part 1
AÑO 2011
DURACIÓN 117 min.
PAÍS
DIRECTOR Bill Condon
GUIÓN Melissa Rosenberg (Novela: Stephenie Meyer)
MÚSICA Carter Burwell
FOTOGRAFÍA Guillermo Navarro
REPARTO Kristen Stewart, Robert Pattinson, Taylor Lautner, Anna Kendrick, Peter Facinelli, Dakota Fanning, Ashley Greene, Jackson Rathbone, Nikki Reed, Kellan Lutz, Peter Facinelli, Elizabeth Reaser, Christian Serratos, Billy Burke, Boo Boo Stewart, Sarah Clarke, Michael Welch, Julia Jones, Kiowa Gordon, Alex Meraz, Gil Birmingham
PRODUCTORA Summit Entertainment / Temple Hill / Sunswept Entertainment
GÉNERO Fantástico. Romance. Thriller | Vampiros. Hombres lobo. Secuela

SINOPSIS
Para siempre es solo el comienzo. “La saga Crepúsculo: Amanecer – Parte 1″ arroja luz sobre los secretos y misterios de este romance épico que ha cautivado a millones de personas en todo el mundo. En este nuevo capítulo, los protagonistas Bella Swan y Edward Cullen tendrán que hacer frente junto a sus seres queridos a la cadena de acontecimientos ocasionados por su boda, su romántica luna de miel y el nacimiento de su primera hija… que trae consigo una imprevista y sorprendente consecuencia para Jacob Black.

DATOS DEL VIDEO:

Calidad CamRip
Codec de Video: XviD – 25,000fps
Formato: Avi
Tamaño: 1,32 GB
Resolucion: 640×288
Duracion: 01:45
Pista Audio 1: Mic 256 Kbps Castellano


Código:

General

Format : AVI
Format/Info : Audio Video Interleave
File size : 1.32 GiB
Duration : 1h 45mn
Overall bit rate : 1 794 Kbps
Writing application : VirtualDubMod 1.5.10.3 | VirtualDub-Fr.org || (build 2550/release)
Writing library : VirtualDubMod build 2550/release

Video
ID : 0
Format : MPEG-4 Visual
Format profile : Advanced Simple@L5
Format settings, BVOP : 2
Format settings, QPel : No
Format settings, GMC : No warppoints
Format settings, Matrix : Default (H.263)
Muxing mode : Packed bitstream
Codec ID : XVID
Codec ID/Hint : XviD
Duration : 1h 45mn
Bit rate : 1 458 Kbps
Width : 640 pixels
Height : 288 pixels
Display aspect ratio : 2.222
Frame rate : 25.000 fps
Color space : YUV
Chroma subsampling : 4:2:0
Bit depth : 8 bits
Scan type : Progressive
Compression mode : Lossy
Bits/(Pixel*Frame) : 0.316
Stream size : 1.07 GiB (81%)
Writing library : XviD 64

Audio
ID : 1
Format : MPEG Audio
Format version : Version 1
Format profile : Layer 3
Codec ID : 55
Codec ID/Hint : MP3
Duration : 1h 45mn
Bit rate mode : Constant
Bit rate : 256 Kbps
Channel(s) : 2 channels
Sampling rate : 44.1 KHz
Compression mode : Lossy
Stream size : 192 MiB (14%)
Alignment : Split accross interleaves

TRAILER:

+ YouTube Video
ERROR: If you can see this, then YouTube is down or you don’t have Flash installed.


CAPTURA DE IMAGEN:

DESCARGA:



http://www.fileserve.com/file/7YPkerS



http://www.uploadstation.com/file/nX4k4Fw


los enlaces estan respaldados, así que si los borran
me dejan un msj privado
y los vuelvo a subir,gracias.

Leave a Reply

Your email address will not be published. Required fields are marked *