Furia De Titanes 2 (Wrath Of The Titans)



Furia de titanes 2! subido el 10 de mayo del 2012, FULL DVDRIP, no mentiras como todos los que he encontrado hasta la fecha.

informacion del torrent:
QUALITY: PERFECT 10/10

All details are here:

Format | AVI Language | ENGLISH
Source | DVD PAL Subs | NONE

QUALITY: PERFECT 10/10

– Video
ID : 0
Format : MPEG-4 Visual
Format profile : Advanced Simple@L5
Format settings, BVOP : Yes
Format settings, QPel : No
Format settings, GMC : No warppoints
Format settings, Matrix : Default (H.263)
Muxing mode : Packed bitstream
Codec ID : XVID
Codec ID/Hint : XviD
Bit rate : 1 345 Kbps
Width : 720 pixels
Height : 314 pixels
Display aspect ratio : 2.25:1
Frame rate : 29.970 fps
Color space : YUV
Chroma subsampling : 4:2:0
Bit depth : 8 bits
Scan type : Progressive
Compression mode : Lossy
Bits/(Pixel*Frame) : 0.198
Stream size : 1.19 GiB (87%)
Writing library : XviD 1.1.0 (UTC 2005-11-22)

– Audio
ID : 1
Format : AC-3
Format/Info : Audio Coding 3
Mode extension : CM (complete main)
Codec ID : 2000
Bit rate mode : Constant
Bit rate : 192 Kbps
Channel(s) : 2 channels
Channel positions : Front: L R
Sampling rate : 48.0 KHz
Bit depth : 16 bits
Compression mode : Lossy
Stream size : 175 MiB (12%)
Alignment : Aligned on interleaves
Interleave, duration : 33 ms (1.00 video frame)
Interleave, preload duration : 512 ms

Tamaño:
798.83 MiB (837635069 Bytes)
Idioma(s) hablado:
Inglés
Idiomas(s) en texto:
Inglés

pueden usar cualquier torrent manager (bit emule, bitlord, bit tornado, bitnet etc etc)

aqui abajito esta el torrent, justo ahora 10 de mayo siendo las 1:30 de la madrugada, se encuentran 720 seeders! ( descargense bitloard y denle click y se abrira solito):

magnet:?xt=urn:btih:4f5e4a5b2e6f26f9377427e42e407e067be204ec&dn=Wrath+Of+The+Titans+%7B2012%7D+DVD–Rip&tr=udp%3A%2F%2Ftracker.openbittorrent.com%3A80&tr=udp%3A%2F%2Ftracker.publicbt.com%3A80&tr=udp%3A%2F%2Ftracker.ccc.de%3A80



Tengo como varios años aqui y este es mi primer post util, ayudenme a ser full user por favor n____n

One Response

  1. FAN May 17, 2012

Leave a Reply

Your email address will not be published. Required fields are marked *