La boda de mi mejor amiga (2011)(HDrip)(castellano AC3 5.1)(Comedia)


La boda de mi mejor amiga

La vida de Annie está hecha un asco. Cuando se entera de que su mejor amiga Lillian va a casarse, se empeña en ser su primera dama de honor. A pesar de no tener pareja ni un centavo en su bolsillo, intenta salir airosa del comprometedor y caro ritual, al tiempo que va conociendo a las otras damas de honor del séquito de la novia, especialmente a su rival más directa (Helen). Mientras las guía por una creciente serie de desastres, Annie se da cuenta de que la persona que mejor la conoce le ha presentado a cuatro extrañas que van a dar un vuelco a su vida.



Título: La boda de mi mejor amiga
Título original: Bridesmaids
País: USA
Estreno en USA: 13/05/2011
Estreno en España: 12/08/2011
Lanzamiento en DVD (alquiler): 16/11/2011
Productora: Apatow Productions, Universal Pictures
Director: Paul Feig
Guión: Annie Mumolo, Kristen Wiig
Reparto: Rose Byrne, Maya Rudolph, Kristen Wiig, Jon Hamm, Dianne Wiest, Matt Lucas, Chris O’Dowd, Ellie Kemper, Melissa McCarthy, Wendi McLendon-Covey, Jill Clayburgh, Rebel Wilson, Michael Hitchcock
Calificación: No recomendada para menores de 12 años



La vida de Annie está hecha un asco. Cuando se entera de que su mejor amiga Lillian va a casarse, se empeña en ser su primera dama de honor. A pesar de no tener pareja ni un centavo en su bolsillo, intenta salir airosa del comprometedor y caro ritual, al tiempo que va conociendo a las otras damas de honor del séquito de la novia, especialmente a su rival más directa (Helen). Mientras las guía por una creciente serie de desastres, Annie se da cuenta de que la persona que mejor la conoce le ha presentado a cuatro extrañas que van a dar un vuelco a su vida.





Spoiler
Código:

General
Complete name : D:\lbd hdrip Evilsega.avi
Format : AVI
Format/Info : Audio Video Interleave
File size : 1.79 GiB
Duration : 2h 4mn
Overall bit rate : 2 050 Kbps
Writing application : VirtualDubMod 1.5.10.2 (build 2540/release)
Writing library : VirtualDubMod build 2540/release

Video
ID : 0
Format : MPEG-4 Visual
Format profile : Simple@L5
Format settings, BVOP : No
Format settings, QPel : No
Format settings, GMC : No warppoints
Format settings, Matrix : Default (H.263)
Codec ID : XVID
Codec ID/Hint : XviD
Duration : 2h 4mn
Bit rate : 1 400 Kbps
Width : 720 pixels
Height : 304 pixels
Display aspect ratio : 2.35:1
Frame rate : 23.976 fps
Color space : YUV
Chroma subsampling : 4:2:0
Bit depth : 8 bits
Scan type : Progressive
Compression mode : Lossy
Bits/(Pixel*Frame) : 0.267
Stream size : 1.22 GiB (68%)
Writing library : XviD 64

Audio
ID : 1
Format : AC-3
Format/Info : Audio Coding 3
Mode extension : CM (complete main)
Codec ID : 2000
Duration : 2h 4mn
Bit rate mode : Constant
Bit rate : 640 Kbps
Channel(s) : 6 channels
Channel positions : Front: L C R, Side: L R, LFE
Sampling rate : 48.0 KHz
Bit depth : 16 bits
Compression mode : Lossy
Stream size : 572 MiB (31%)
Alignment : Split accross interleaves
Interleave, duration : 42 ms (1.00 video frame)
Interleave, preload duration : 500 ms







http://www.filejungle.com/f/hzeYzF
http://www.filejungle.com/f/qYgM6n
http://www.filejungle.com/f/mrFf3C



http://ul.to/ooav35vh/lbd hdrip Evilsega.part2.rar
http://ul.to/ro476t1z/lbd hdrip Evilsega.part1.rar
http://ul.to/owvaxt9p/lbd hdrip Evilsega.part3.rar

En un Solo Link:


http://ul.to/cciz853r/lbd hdrip Evilsega.avi

Leave a Reply

Your email address will not be published. Required fields are marked *