Ladrón de Guante Blanco T.1 (HDi 720p DUAL 2.2GB 14-14 | MU FS US |)

Ladrón de Guante Blanco
( White Collar ) | Temporada 1 | Capitulos

Título: Ladrón de Guante Blanco ( White Collar )
Título Original: White Collar
Año: 2009
País: USA
Duración: 45 min.
Género: Action | Drama
Creador: Jeff Eastin & Travis Romero
Productora: 20th Century Fox Film Corporation

Sinopsis: White Collar se centra en una extraña pareja formada por un brillante criminal, interpretado por Matthew Bomer, y el líder de la unidad de crímenes económicos del FBI, interpretado por Tim DeKay.

+ YouTube Video
ERROR: If you can see this, then YouTube is down or you don’t have Flash installed.

Temporada: 1
Nº de Capitulos: 14
Rip: HDi
Formato: 720p
Contenedor: MKV
Audio: Castellano e Inglés
Tamaño: 2.2GB
Rippeo: depechemode13
Spoiler Format : Matroska
File size : 2.26 GiB
Duration : 42mn 6s
Overall bit rate : 7 693 Kbps
Encoded date : UTC 2010-09-28 06:58:47
Writing application : mkvmerge v2.1.0 (‘Another Place To Fall’) built on Aug 19 2007 13:40:07
Writing library : libebml v0.7.7 + libmatroska v0.8.1

Video
ID : 1
Format : AVC
Format/Info : Advanced Video Codec
Format profile : [email protected]
Format settings, CABAC : Yes
Format settings, ReFrames : 5 frames
Format settings, GOP : M=4, N=32
Codec ID : V_MPEG4/ISO/AVC
Duration : 42mn 6s
Bit rate : 5 924 Kbps
Width : 1 280 pixels
Height : 720 pixels
Display aspect ratio : 16:9
Frame rate : 23.976 fps
Color space : YUV
Chroma subsampling : 4:2:0
Bit depth : 8 bits
Scan type : Progressive
Bits/(Pixel*Frame) : 0.268
Stream size : 1.70 GiB (75%)
Writing library : x264 core 102 r1666 d058f37
Encoding settings : cabac=1 / ref=5 / deblock=1:0:0 / analyse=0x3:0x113 / me=umh / subme=7 / psy=1 / psy_rd=1.00:0.00 / mixed_ref=1 / me_range=16 / chroma_me=1 / trellis=1 / 8x8dct=1 / cqm=0 / deadzone=21,11 / fast_pskip=0 / chroma_qp_offset=-2 / threads=12 / sliced_threads=0 / nr=0 / decimate=1 / interlaced=0 / constrained_intra=0 / bframes=3 / b_pyramid=2 / b_adapt=1 / b_bias=0 / direct=1 / weightb=1 / open_gop=0 / weightp=2 / keyint=250 / keyint_min=25 / scenecut=40 / intra_refresh=0 / rc_lookahead=40 / rc=2pass / mbtree=1 / bitrate=5924 / ratetol=1.0 / qcomp=0.60 / qpmin=10 / qpmax=51 / qpstep=4 / cplxblur=20.0 / qblur=0.5 / ip_ratio=1.40 / aq=1:1.00
Language : English

Audio #1
ID : 2
Format : DTS
Format/Info : Digital Theater Systems
Codec ID : A_DTS
Duration : 42mn 6s
Bit rate mode : Constant
Bit rate : 1 510 Kbps
Channel(s) : 6 channels
Channel positions : Front: L C R, Side: L R, LFE
Sampling rate : 48.0 KHz
Bit depth : 24 bits
Compression mode : Lossy
Stream size : 455 MiB (20%)
Language : English

Audio #2
ID : 4
Format : AC-3
Format/Info : Audio Coding 3
Mode extension : CM (complete main)
Codec ID : A_AC3
Duration : 42mn 6s
Bit rate mode : Constant
Bit rate : 256 Kbps
Channel(s) : 2 channels
Channel positions : Front: L R
Sampling rate : 48.0 KHz
Bit depth : 16 bits
Compression mode : Lossy
Stream size : 77.1 MiB (3%)
Language : Spanish

Text #1
ID : 3
Format : UTF-8
Codec ID : S_TEXT/UTF8
Codec ID/Info : UTF-8 Plain Text
Language : English

Text #2
ID : 5
Format : UTF-8
Codec ID : S_TEXT/UTF8
Codec ID/Info : UTF-8 Plain Text
Language : Spanish

Links Temporada 1
Uploadstation: http://linksave.in/4290741404ec628cbb262b
Fileserve: http://linksave.in/13501123494ec628e1cff6e
Megaupload: http://linksave.in/19381062664ec62e9989f11

Leave a Reply

Your email address will not be published. Required fields are marked *