Los cocodrilos[2009][DVDRip][Castellano-AC3-2.1][Aventuras][1Link]


TÍTULO ORIGINAL: Vorstadtkrokodile
AÑO: 2009
DURACIÓN: 98 min.
PAÍS:
DIRECTOR: Christian Ditter
GUIÓN: Christian Ditter, Martin Ritzenhoff
MÚSICA: Heiko Maile
FOTOGRAFÍA: Christian Rein
REPARTO: Nick Romeo Reimann, Fabian Halbig, Leonie Tepe, Manuel Steitz, David Hürten, Javidan Imani, Robin Walter, Nicolas Schinseck, Martin Semmelrogge
PRODUCTORA: Constantin Film
GÉNERO: Aventuras. Infantil


Los Cocodrilos son la pandilla divertida de la zona. Una noche asaltan el negocio de la madre de Hannes, uno de los miembros de la pandilla, y roban toda la mercadería. Los Cocodrilos tienen una misión: resolver el caso, cobrar la recompensa prometida y ayudar de esta manera a Hannes y a su madre





Spoiler
Código:

General
Complete name : D:\\Los.cocodrilos.dvd.lavativa.avi
Format : AVI
Format/Info : Audio Video Interleave
File size : 1.04 GiB
Duration : 1h 32mn
Overall bit rate : 1 610 Kbps
Writing application : Lavf52.78.4

Video
ID : 0
Format : MPEG-4 Visual
Format profile : Advanced Simple@L5
Format settings, BVOP : 2
Format settings, QPel : No
Format settings, GMC : No warppoints
Format settings, Matrix : Default (H.263)
Muxing mode : Packed bitstream
Codec ID : DX50
Codec ID/Hint : DivX 5
Duration : 1h 32mn
Bit rate : 1 345 Kbps
Width : 720 pixels
Height : 390 pixels
Display aspect ratio : 16:9
Frame rate : 25.000 fps
Color space : YUV
Chroma subsampling : 4:2:0
Bit depth : 8 bits
Scan type : Progressive
Compression mode : Lossy
Bits/(Pixel*Frame) : 0.192
Stream size : 889 MiB (84%)
Writing library : XviD 1.2.1 (UTC 2008-12-04)

Audio
ID : 1
Format : AC-3
Format/Info : Audio Coding 3
Mode extension : CM (complete main)
Codec ID : 2000
Duration : 1h 32mn
Bit rate mode : Constant
Bit rate : 192 Kbps
Channel(s) : 2 channels
Channel positions : Front: L R
Sampling rate : 48.0 KHz
Bit depth : 16 bits
Compression mode : Lossy
Stream size : 127 MiB (12%)
Alignment : Aligned on interleaves






http://www.filesonic.com/file/389969…sega.part1.rar
http://www.filesonic.com/file/389969…sega.part2.rar

En un Solo Link:


http://www.filesonic.com/file/389970…d.Evilsega.avi


Enlaces caidos? Alguna duda? algun error? Mandame Mp ñ_ñ

Leave a Reply

Your email address will not be published. Required fields are marked *