Rio (2011 BD-Rip 1080p AVC-Intra MKV DTS-AC3 Esp-Ing)

Rio:

Título: Rio
Título Original: Rio
País: EEUU
Duración: 95 min
Año: 2011
Género: Animación
Servidor: UploadStation, Filejungle y Fileserve
Codec: AVC-Intra 100
Audio: Español Digital Theater SystemDTS 768 kbps)
Audio: Inglés Dolby Digital 5.1 (AC3 448 kbps)
Subtitulos: Inglés y Español
Resolución: 1920×1080
Tamaño: 3.84 GB
Formato: MKV (.mkv)
Nº de Partes por Fileserve, Filejungle y UploadStation: 9 + 10 (458.7MB)

Media Info:

Spoiler General
Format : Matroska
Format version : Version 2
File size : 3.84 GiB
Duration : 1h 35mn
Overall bit rate : 5 731 Kbps
Movie name : Rio by Ricjosep
Encoded date : UTC 2011-10-13 21:32:33
Writing application : mkvmerge v4.8.0 (‘I Got The…’) creado el May 24 2011 03:12:58
Writing library : libebml v1.2.0 + libmatroska v1.1.0

Video
ID : 1
Format : AVC
Format/Info : Advanced Video Codec
Format profile : [email protected]
Format settings, CABAC : Yes
Format settings, ReFrames : 3 frames
Muxing mode : Header stripping
Codec ID : V_MPEG4/ISO/AVC
Duration : 1h 35mn
Bit rate mode : Variable
Bit rate : 4 415 Kbps
Maximum bit rate : 35.0 Mbps
Width : 1 920 pixels
Height : 1 080 pixels
Display aspect ratio : 16:9
Frame rate : 23.976 fps
Standard : NTSC
Color space : YUV
Chroma subsampling : 4:2:0
Bit depth : 8 bits
Scan type : Progressive
Bits/(Pixel*Frame) : 0.089
Stream size : 2.96 GiB (77%)
Color primaries : BT.709-5, BT.1361, IEC 61966-2-4, SMPTE RP177
Transfer characteristics : BT.709-5, BT.1361
Matrix coefficients : BT.709-5, BT.1361, IEC 61966-2-4 709, SMPTE RP177

Audio #1
ID : 2
Format : DTS
Format/Info : Digital Theater Systems
Muxing mode : Header stripping
Codec ID : A_DTS
Duration : 1h 35mn
Bit rate mode : Constant
Bit rate : 755 Kbps
Channel(s) : 6 channels
Channel positions : Front: L C R, Side: L R, LFE
Sampling rate : 48.0 KHz
Bit depth : 24 bits
Compression mode : Lossy
Stream size : 518 MiB (13%)
Title : Castellano
Language : Spanish

Audio #2
ID : 3
Format : AC-3
Format/Info : Audio Coding 3
Mode extension : CM (complete main)
Muxing mode : Header stripping
Codec ID : A_AC3
Duration : 1h 35mn
Bit rate mode : Constant
Bit rate : 448 Kbps
Channel(s) : 6 channels
Channel positions : Front: L C R, Side: L R, LFE
Sampling rate : 48.0 KHz
Bit depth : 16 bits
Compression mode : Lossy
Stream size : 308 MiB (8%)
Title : Ingles
Language : English

Text #1
ID : 4
Format : PGS
Muxing mode : zlib
Codec ID : S_HDMV/PGS
Codec ID/Info : The same subtitle format used on BDs/HD-DVDs
Title : Español
Language : Spanish

Text #2
ID : 5
Format : PGS
Muxing mode : zlib
Codec ID : S_HDMV/PGS
Codec ID/Info : The same subtitle format used on BDs/HD-DVDs
Title : Ingles
Language : English

Sinopsis:

La acción transcurre en la espectacular ciudad de Río de Janeiro y en la exuberante selva tropical durante la fiesta más importante del año para los brasileños: el Carnaval. Los protagonistas son Blu, un ingenuo guacamayo que no sabe volar y que cree que es el último de su especie, y Jewel, una guacamaya salvaje y de espíritu libre. Ambos emprenderán una inesperada aventura en búsqueda de la libertad, acompañados por excéntricos amigos de los que aprenderán qué es la amistad, el amor y el coraje…

Enlaces:



http://ncrypt.in/folder-jzHpe34B

Muestras:

Leave a Reply

Your email address will not be published. Required fields are marked *