The Walking Dead Temp 4 Cap 4 HD 1080p Español(MEGA)

The Walking Dead Temp 4 Cap 4 HD 1080p Español(MEGA)
español
Título: The Walking Dead
Título Original:The Walking Dead
TEMPORADA: 4
CAPITULOS: 16
AÑO: 2013
PAIS: USA
DIRECTOR: Frank Darabont, Michelle MacLaren, Gwyneth Horder-Payton, Johan Renck, Ernest Dickerson, Guy Ferland
REAPRTO: Andrew Lincoln, Jon Bernthal, Sarah Wayne Callies, Laurie Holden, Jeffrey DeMunn, Steven Yeun, Norman Reedos, Emma Bell, Chandler Riggs, IronE Singleton, Melissa Suzanne McBride, Jeryl Prescott, Andrew Rothenberg, Michael Rooker, Noah Emmerich
PRODUCTORA: Emitida por la cadena AMC; Circle of Confusion / Valhalla Motion Pictures / Darkwoods Productions / AMC Studios
GENERO: Terror
mega
The Walking Dead cuenta la historia de las secuelas de un apocalipsis zombi y sigue a un pequeño grupo de supervivientes que viajan a través de Estados Unidos en busca de un nuevo hogar lejos de las hordas de zombis. Después de despertar de un coma en un hospital abandonado, el oficial de policía Rick Grimes se da cuenta de que el mundo que conocía no existe, devastado por una epidemia zombi de proporciones apocalípticas. En los alrededores, en las afueras de Atlanta, un pequeño campamento lucha por sobrevivir mientras que los no-muertos los acechan a cada momento.El grupo es guiado por Rick Grimes. Mientras su situación se vuelve más y más sombría, la desesperación del grupo por sobrevivir los obliga a hacer casi cualquier cosa para mantener con vida a sus compañeros.
castellano
Format : Matroska
Format version : Version 2
File size : 1.77 GiB
Duration : 43mn 3s
Overall bit rate : 5 875 Kbps
Movie name : Ripeo,Sincronización Y Montaje Por: Dan_122-Bryan_122
Encoded date : UTC 2013-10-14 21:54:06
Writing application : mkvmerge v5.8.0 (‘No Sleep / Pillow’) built on Sep 2 2012 15:37:04
Writing library : libebml v1.2.3 + libmatroska v1.3.0

Video
ID : 1
Format : AVC
Format/Info : Advanced Video Codec
Format profile : [email protected]
Format settings, CABAC : Yes
Format settings, ReFrames : 4 frames
Muxing mode : Header stripping
Codec ID : V_MPEG4/ISO/AVC
Duration : 43mn 3s
Bit rate : 5 182 Kbps
Width : 1 916 pixels
Height : 1 076 pixels
Display aspect ratio : 16:9
Frame rate mode : Constant
Frame rate : 23.976 fps
Color space : YUV
Chroma subsampling : 4:2:0
Bit depth : 8 bits
Scan type : Progressive
Bits/(Pixel*Frame) : 0.105
Stream size : 1.56 GiB (88%)
Language : English
Default : Yes
Forced : No
Color primaries : BT.709
Transfer characteristics : BT.709
Matrix coefficients : BT.709

Audio #1
ID : 2
Format : AC-3
Format/Info : Audio Coding 3
Mode extension : CM (complete main)
Format settings, Endianness : Big
Muxing mode : Header stripping
Codec ID : A_AC3
Duration : 43mn 3s
Bit rate mode : Constant
Bit rate : 192 Kbps
Channel count : 2 channels
Channel positions : Front: L R
Sampling rate : 48.0 KHz
Bit depth : 16 bits
Compression mode : Lossy
Stream size : 59.1 MiB (3%)
Language : Spanish
Default : Yes
Forced : Yes

Audio #2
ID : 3
Format : AC-3
Format/Info : Audio Coding 3
Mode extension : CM (complete main)
Format settings, Endianness : Big
Muxing mode : Header stripping
Codec ID : A_AC3
Duration : 43mn 3s
Bit rate mode : Constant
Bit rate : 384 Kbps
Channel count : 6 channels
Channel positions : Front: L C R, Side: L R, LFE
Sampling rate : 48.0 KHz
Bit depth : 16 bits
Compression mode : Lossy
Stream size : 118 MiB (7%)
Language : English
Default : No
Forced : No

Text #1
ID : 4
Format : UTF-8
Codec ID : S_TEXT/UTF8
Codec ID/Info : UTF-8 Plain Text
Language : Spanish
Default : No
Forced : No

Text #2
ID : 5
Format : UTF-8
Codec ID : S_TEXT/UTF8
Codec ID/Info : UTF-8 Plain Text
Language : English
Default : No
Forced : No
The Walking Dead
capitulo 4
Temporada 4
2013
hd full hd
The walking dead temporada 4
The Walking Dead Temp 4 Cap 4 HD 1080p Español(MEGA)

español

https://mega.co.nz/#!8RZjAKJb!AAxNXQCD7J5W6-WH4W3NkwCDWeYAlLGYVoJ2L-Eu6ms
https://mega.co.nz/#!dYgXgRJK!AClvcgBQNKefXqUg5gXplgBIPIUA1_ywn0ndCObsMnk
https://mega.co.nz/#!JQhl1RbK!AAO99AB-jfsejTqxJ2L_uQDLkAcAkYirHnRt0ieLLU4
https://mega.co.nz/#!EEYBSL6R!APpxvQDqOICMnYathLbHhQDlBbcAX3IkjI6lHoRocBo
https://mega.co.nz/#!kdRggKSC!AL0uUwD3pe1sFRehZ_y0bQCxpmoAFXKbbPgt_WcoL7A
https://mega.co.nz/#!xQoHWASD!AJgvswCXn0Twq-dhnLJK8gBHflgAZ6Kv8LG4uZyzWWc
https://mega.co.nz/#!BMQ0FYLY!ABZRjwDk3-5pQZsDpoLVpgACeVQAplH0aZkscKYLmKo
https://mega.co.nz/#!oBAiWJTD!AJf-UADmQGilpyO335QUZADK00YA_8pNpdUr3d88pyk
https://mega.co.nz/#!MVw1SKgI!AMSEMQDQs3WtBgPjN23YmwCzMuQA2C2Ira5mHTdI1PI
https://mega.co.nz/#!9No02TKA!AB4_nABwBNTtTIvy0QLJ7gCzHKwAIg5N7a7jHNE8dk4

Pass : NO TIENE

mega

castellano
VISITA MIS OTROS POST !

http://www.taringa.net/chipi1982/posts

Leave a Reply

Your email address will not be published. Required fields are marked *